<?xml version="1.0" standalone="no"?>
<!DOCTYPE svg PUBLIC "-//W3C//DTD SVG 1.1//EN" "http://www.w3.org/Graphics/SVG/1.1/DTD/svg11.dtd" >
<svg xmlns="http://www.w3.org/2000/svg">
<metadata></metadata>
<defs>
<font id="khandlight" horiz-adv-x="917" >
<font-face units-per-em="2048" ascent="1638" descent="-410" />
<missing-glyph horiz-adv-x="389" />
<glyph unicode="&#xfb01;" horiz-adv-x="972" d="M82 1061v92h117v68q0 268 329 268q135 0 256 -29v-96q-119 33 -248.5 33t-182 -42t-52.5 -134v-68h518v-1153h-102v1061h-416v-1061h-102v1061h-117z" />
<glyph unicode="&#xfb02;" horiz-adv-x="972" d="M82 1061v92h117v68q0 268 325 268q119 0 238 -29h57v-1460h-102v1376q-88 20 -201 20.5t-164 -40.5t-51 -135v-68h229v-92h-229v-1061h-102v1061h-117z" />
<glyph horiz-adv-x="0" />
<glyph horiz-adv-x="682" />
<glyph horiz-adv-x="0" />
<glyph horiz-adv-x="0" />
<glyph unicode="&#xd;" horiz-adv-x="681" />
<glyph unicode=" "  horiz-adv-x="389" />
<glyph unicode="&#x09;" horiz-adv-x="389" />
<glyph unicode="&#xa0;" horiz-adv-x="389" />
<glyph unicode="!" horiz-adv-x="462" d="M162 65.5q0 75.5 67.5 75.5t67.5 -75.5t-67.5 -75.5t-67.5 75.5zM174 1364h113l-13 -1038h-88z" />
<glyph unicode="&#x22;" horiz-adv-x="634" d="M164 1133v374h92v-374h-92zM379 1133v374h92v-374h-92z" />
<glyph unicode="#" horiz-adv-x="1034" d="M76 336v76h178l74 495h-168v76h178l49 336h88l-49 -336h319l50 336h88l-49 -336h161v-76h-172l-73 -495h161v-76h-172l-49 -336h-88l49 336h-319l-49 -336h-88l49 336h-168zM342 412h320l73 495h-319z" />
<glyph unicode="$" horiz-adv-x="765" d="M61 981v119q0 117 69 187.5t204 84.5v129h92v-127q121 -2 221 -31v-98q-98 35 -254 35q-229 0 -229 -176v-117q0 -135 125 -203l239 -133q166 -90 166 -270v-107q0 -254 -288 -280v-158h-93v154q-139 2 -243 39v98q121 -43 264 -43q258 0 258 190v101q0 72 -25.5 114.5 t-93.5 79.5l-240 131q-172 94 -172 281z" />
<glyph unicode="%" horiz-adv-x="1077" d="M72 1108q0 133 54 204.5t154.5 71.5t154.5 -71.5t54 -204.5t-54 -205t-154.5 -72t-154.5 72t-54 205zM164 1108q0 -190 116.5 -190t116.5 190t-116.5 190t-116.5 -190zM236 0l522 1364h86l-522 -1364h-86zM588 256q0 133 54 204.5t154.5 71.5t155 -71.5t54.5 -204.5 t-54.5 -204.5t-155 -71.5t-154.5 71.5t-54 204.5zM680 256q0 -190 116.5 -190t116.5 190t-116.5 190t-116.5 -190z" />
<glyph unicode="&#x26;" horiz-adv-x="911" d="M109 293v139q0 203 163 266q-162 61 -161 269v110q0 137 90 217t276 80q135 0 256 -39v-102q-121 43 -262 43t-199.5 -52.5t-58.5 -146.5v-110q0 -221 203 -222h276v117h103v-117h82v-92h-82v-360q0 -137 -88.5 -225t-252 -88t-254.5 88t-91 225zM211 293 q0 -100 62.5 -160.5t180 -60.5t178 59.5t60.5 161.5v360h-272q-209 0 -209 -221v-139z" />
<glyph unicode="'" horiz-adv-x="415" d="M164 1133v374h88v-374h-88z" />
<glyph unicode="(" horiz-adv-x="542" d="M143 660.5q0 220.5 47.5 466t137.5 436.5h92q-184 -439 -184 -904q0 -211 48 -453.5t136 -451.5h-92q-90 190 -137.5 438t-47.5 468.5z" />
<glyph unicode=")" horiz-adv-x="542" d="M123 -246q88 209 136 452t48 453q0 465 -184 904h92q90 -191 137 -436.5t47 -466t-47 -468t-137 -438.5h-92z" />
<glyph unicode="*" horiz-adv-x="980" d="M143 1292l25 80l203 -65q66 -20 102 -54q-20 45 -20 113v213h84v-213q0 -61 -19 -113q33 33 98 54l205 67l27 -80l-203 -65q-66 -23 -113 -19q39 -23 80 -77l127 -175l-67 -49l-125 172q-43 59 -51 103q-14 -51 -52 -101l-125 -174l-67 49l125 172q43 57 82 80 q-47 -4 -113 17z" />
<glyph unicode="+" horiz-adv-x="862" d="M82 621v81h303v308h92v-308h303v-81h-303v-310h-92v310h-303z" />
<glyph unicode="," horiz-adv-x="258" d="M8 -254l82 395h51q57 0 57.5 -59t-124.5 -336h-66z" />
<glyph unicode="-" horiz-adv-x="421" d="M82 621v81h268v-81h-268z" />
<glyph unicode="." horiz-adv-x="258" d="M61 65.5q0 75.5 68 75.5t68 -75.5t-68 -75.5t-68 75.5z" />
<glyph unicode="/" horiz-adv-x="731" d="M63 -246l551 1811h91l-551 -1811h-91z" />
<glyph unicode="0" horiz-adv-x="901" d="M133 293v778q0 141 78 227t239.5 86t239.5 -86t78 -227v-778q0 -141 -78 -227t-239.5 -86t-239.5 86t-78 227zM236 293q0 -221 215 -221t215 221v778q0 221 -215 221t-215 -221v-778z" />
<glyph unicode="1" horiz-adv-x="544" d="M20 1079v119l232 166h139v-1364h-102v1274z" />
<glyph unicode="2" horiz-adv-x="798" d="M92 0v287q0 133 55.5 206.5t178.5 153.5l151 101q68 43 92.5 95t24.5 138v117q0 92 -49 137t-182.5 45t-249.5 -39v100q102 33 243 33q340 0 340 -276v-117q-2 -121 -35.5 -187.5t-125.5 -127.5l-152 -101q-109 -70 -148.5 -124t-39.5 -152v-191h512v-98h-615z" />
<glyph unicode="3" horiz-adv-x="788" d="M53 27v102q123 -45 257 -45t188.5 48t54.5 142v142q0 221 -215 221h-135v92h135q115 0 161 57.5t46 163.5v142q0 92 -51.5 140t-184.5 48t-231 -33v99q94 28 231 28q338 0 338 -282v-142q0 -201 -153 -268q162 -59 161 -260v-148q0 -135 -86 -209.5t-249.5 -74.5 t-266.5 37z" />
<glyph unicode="4" horiz-adv-x="798" d="M20 262v92l449 1010h178v-1010h141v-92h-141v-262h-102v262h-525zM125 354h420v940z" />
<glyph unicode="5" horiz-adv-x="845" d="M127 31v104q127 -51 248 -51q250 0 250 188v220q0 106 -44 156t-159 50q-61 0 -287 -24v690h563v-94h-460v-486q102 12 184 13q305 0 305 -305v-220q0 -133 -88 -207.5t-242.5 -74.5t-269.5 41z" />
<glyph unicode="6" horiz-adv-x="870" d="M133 293v774q0 137 85 222t241.5 85t265.5 -35v-98q-111 39 -248 39q-242 0 -241 -213v-279q102 51 237 51.5t215 -72.5t80 -212v-262q0 -141 -78 -227t-239.5 -86t-239.5 86t-78 227zM236 293q0 -221 215 -221t215 221v262q0 190 -201 190q-129 0 -229 -59v-393z" />
<glyph unicode="7" horiz-adv-x="643" d="M10 1272v92h580v-80l-125 -401q-70 -225 -98.5 -366.5t-28.5 -317.5v-199h-105v199q0 180 29 318t100 366l123 389h-475z" />
<glyph unicode="8" horiz-adv-x="921" d="M133 285v127q0 203 170 268q-164 63 -164 266v133q0 139 80 222t242 83t241.5 -83t79.5 -222v-133q0 -203 -164 -266q170 -66 170 -268v-127q0 -139 -82.5 -222t-244.5 -83t-245 82.5t-83 222.5zM236 285q0 -213 225 -213t225 213v127q0 221 -225 221t-225 -221v-127z M242 946q0 -221 219 -221t219 221v133q0 213 -219 213t-219 -213v-133z" />
<glyph unicode="9" horiz-adv-x="870" d="M102 805v266q0 141 78 227t240 86t239.5 -86t77.5 -227v-776q0 -137 -87 -221t-239.5 -84t-273.5 39v100q127 -45 252 -45q246 0 246 211v262q-88 -47 -228.5 -47t-222.5 78t-82 217zM205 805q0 -201 205 -201q141 0 225 55v412q0 221 -215 221t-215 -221v-266z" />
<glyph unicode=":" horiz-adv-x="385" d="M61 65.5q0 75.5 68 75.5t68 -75.5t-68 -75.5t-68 75.5zM61 782.5q0 75.5 68 75.5t68 -75.5t-68 -75.5t-68 75.5z" />
<glyph unicode=";" horiz-adv-x="374" d="M8 -254l82 395h51q57 0 57.5 -59t-124.5 -336h-66zM61 782.5q0 75.5 68 75.5t68 -75.5t-68 -75.5t-68 75.5z" />
<glyph unicode="&#x3c;" horiz-adv-x="913" d="M92 596v127l699 281v-93l-627 -252l627 -249v-93z" />
<glyph unicode="=" horiz-adv-x="862" d="M82 442v82h698v-82h-698zM82 795v82h698v-82h-698z" />
<glyph unicode="&#x3e;" horiz-adv-x="913" d="M123 317v93l627 249l-627 252v93l698 -281v-127z" />
<glyph unicode="?" horiz-adv-x="751" d="M76 1255v103q106 26 229 26q344 0 344 -274v-209q0 -303 -311 -311l-8 -264h-92l-7 358h111q205 0 205 217v209q0 90 -52.5 133t-184.5 43t-234 -31zM215 65.5q0 75.5 67.5 75.5t67.5 -75.5t-67.5 -75.5t-67.5 75.5z" />
<glyph unicode="@" horiz-adv-x="1722" d="M156 554q0 378 171 575.5t544.5 197.5t542.5 -186.5t169 -562.5q0 -510 -299 -510q-150 0 -207 94q-86 -72 -229 -72q-279 0 -279 234v22q0 109 62.5 164t189.5 94l221 66v112q0 80 -36.5 122t-133 42t-249.5 -35v93q135 33 260 32.5t189.5 -69t64.5 -185.5v-460 q0 -88 35.5 -127t111.5 -39q203 0 203 422q0 334 -144.5 498.5t-473 164.5t-473 -174t-144.5 -512t144.5 -512t471.5 -174h172v-86h-172q-375 0 -543.5 196.5t-168.5 574.5zM672 322q0 -143 155 -144q63 0 116.5 17.5t98.5 50.5v329l-206 -61q-90 -27 -127 -58.5t-37 -109.5 v-24z" />
<glyph unicode="A" horiz-adv-x="868" d="M41 0l319 1364h148l319 -1364h-106l-92 399h-389l-93 -399h-106zM260 492h348l-174 755z" />
<glyph unicode="B" horiz-adv-x="944" d="M154 0v1364h319q162 0 244 -84t82 -223v-111q0 -195 -154 -258q166 -59 166 -264v-117q0 -139 -82 -223t-244 -84h-331zM256 92h229q224 0 224 215v117q0 215 -224 215h-229v-547zM256 731h217q223 0 223 215v111q0 215 -223 215h-217v-541z" />
<glyph unicode="C" horiz-adv-x="796" d="M133 266v832q0 276 346 276q117 0 232 -33v-96q-117 35 -242 35t-179 -46t-54 -136v-832q0 -90 54 -136t181 -46t244 35v-96q-102 -33 -236 -33q-346 0 -346 276z" />
<glyph unicode="D" horiz-adv-x="937" d="M154 0v1364h325q162 0 244 -84t82 -223v-750q0 -139 -82 -223t-244 -84h-325zM256 92h223q223 0 223 215v750q0 215 -223 215h-223v-1180z" />
<glyph unicode="E" horiz-adv-x="800" d="M154 0v1364h565v-92h-463v-539h403v-92h-403v-549h463v-92h-565z" />
<glyph unicode="F" horiz-adv-x="741" d="M154 0v1364h546v-92h-444v-559h426v-92h-426v-621h-102z" />
<glyph unicode="G" horiz-adv-x="907" d="M133 266v819q0 289 356 289q123 0 238 -33v-100q-121 39 -248 39q-244 0 -243 -195v-819q0 -184 210 -184q145 0 216 49v522h102v-583q-135 -80 -296 -80t-248 65.5t-87 210.5z" />
<glyph unicode="H" horiz-adv-x="993" d="M154 0v1364h102v-649h479v649h105v-1364h-105v623h-479v-623h-102z" />
<glyph unicode="I" horiz-adv-x="409" d="M154 0v1364h102v-1364h-102z" />
<glyph unicode="J" horiz-adv-x="409" d="M23 -305l61 217q70 242 70 485v967h102v-965q0 -250 -68 -489l-63 -215h-102z" />
<glyph unicode="K" horiz-adv-x="858" d="M154 0v1364h102v-1364h-102zM393 676l297 688h113l-297 -684l311 -680h-115z" />
<glyph unicode="L" horiz-adv-x="694" d="M154 0v1364h102v-1272h428v-92h-530z" />
<glyph unicode="M" horiz-adv-x="1230" d="M154 0v1364h135l325 -899l326 899h137v-1364h-98v786l6 406l-305 -823h-131l-307 823q8 -193 8 -404v-788h-96z" />
<glyph unicode="N" horiz-adv-x="1005" d="M154 0v1364h133q442 -1126 467 -1192l-4 414v778h102v-1364h-135q-391 991 -467 1188l4 -414v-774h-100z" />
<glyph unicode="O" d="M133 293v778q0 139 82 226t244 87t243.5 -87t81.5 -226v-778q0 -139 -81.5 -226t-243.5 -87t-244 87t-82 226zM236 293q0 -221 223 -221t223 221v778q0 221 -223 221t-223 -221v-778z" />
<glyph unicode="P" horiz-adv-x="882" d="M154 0v1364h301q162 0 243.5 -84t81.5 -223v-260q0 -139 -82 -223.5t-243 -84.5h-199v-489h-102zM256 582h199q223 0 223 215v260q0 215 -223 215h-199v-690z" />
<glyph unicode="Q" d="M133 293v778q0 139 82 226t244 87t243.5 -87t81.5 -226v-778q0 -180 -127 -262l217 -244h-133l-180 203q-51 -10 -102 -10q-162 0 -244 87t-82 226zM236 293q0 -221 223 -221t223 221v778q0 221 -223 221t-223 -221v-778z" />
<glyph unicode="R" horiz-adv-x="921" d="M154 0v1364h301q162 0 243.5 -84t81.5 -223v-187q0 -217 -176 -282l215 -588h-112l-203 565q-16 -2 -49 -2h-199v-563h-102zM256 659h199q223 0 223 211v187q0 215 -223 215h-199v-613z" />
<glyph unicode="S" horiz-adv-x="765" d="M61 981v119q0 129 85 201.5t240 72.5t261 -31v-98q-98 35 -254 35q-229 0 -229 -176v-117q0 -135 125 -203l239 -133q166 -90 166 -270v-107q0 -135 -89 -209.5t-258 -74.5t-277 39v98q121 -43 264 -43q258 0 258 190v101q0 72 -25.5 114.5t-93.5 79.5l-240 131 q-172 94 -172 281z" />
<glyph unicode="T" horiz-adv-x="684" d="M20 1272v92h644v-92h-271v-1272h-102v1272h-271z" />
<glyph unicode="U" horiz-adv-x="937" d="M143 293v1071h103v-1071q0 -221 223 -221t223 221v1071h103v-1071q0 -139 -82 -226t-244 -87t-244 87t-82 226z" />
<glyph unicode="V" horiz-adv-x="823" d="M31 1364h106q246 -1116 275 -1255q34 174 274 1255h107l-308 -1364h-147z" />
<glyph unicode="W" horiz-adv-x="1255" d="M51 1364h107l151 -913l53 -359q23 180 54 361l151 911h121l152 -913l53 -359q35 242 205 1272h106l-237 -1364h-148q-170 979 -192 1202q-20 -223 -66 -481l-125 -721h-147z" />
<glyph unicode="X" horiz-adv-x="761" d="M31 0l297 682l-297 682h112l238 -559l237 559h113l-299 -682l299 -682h-113l-237 557l-238 -557h-112z" />
<glyph unicode="Y" horiz-adv-x="798" d="M10 1364h107q190 -504 226 -604.5t58 -157.5q20 57 62 172q92 252 219 590h106l-337 -893v-471h-103v471z" />
<glyph unicode="Z" horiz-adv-x="759" d="M61 0v92l529 1180h-516v92h624v-92l-528 -1180h516v-92h-625z" />
<glyph unicode="[" horiz-adv-x="563" d="M164 -246v1811h346v-82h-254v-1647h254v-82h-346z" />
<glyph unicode="\" horiz-adv-x="751" d="M63 1565h91l551 -1811h-91z" />
<glyph unicode="]" horiz-adv-x="563" d="M53 -164h254v1647h-254v82h346v-1811h-346v82z" />
<glyph unicode="^" horiz-adv-x="583" d="M8 766l205 553h149l203 -553h-96l-182 508l-183 -508h-96z" />
<glyph unicode="_" horiz-adv-x="927" d="M0 -31h928v-82h-928v82z" />
<glyph unicode="`" horiz-adv-x="716" d="M264 1460h113l76 -215h-76z" />
<glyph unicode="a" horiz-adv-x="864" d="M72 266v66q0 203 245 272l304 86v195q0 92 -50.5 136t-190.5 44t-255 -41v102q115 37 260 37q336 0 336 -278v-885h-100v82q-39 -31 -68 -47q-72 -43 -195 -43q-287 0 -286 274zM172 264q0 -94 44 -138t149 -44q150 0 256 94v418l-271 -76q-100 -31 -139 -73.5 t-39 -116.5v-64z" />
<glyph unicode="b" horiz-adv-x="907" d="M154 0v1460h100v-356q139 55 256 55t190.5 -72.5t73.5 -201.5v-582q0 -143 -82 -223t-219 -80h-319zM256 92h195q221 0 221 211v582q0 178 -174 178q-86 0 -242 -57v-914z" />
<glyph unicode="c" horiz-adv-x="755" d="M133 264v623q0 276 330 276q119 0 207 -26v-95q-92 27 -216 27t-171 -45t-47 -137v-623q0 -92 47 -136t173 -44t218 31v-97q-99 -28 -204 -28h-7q-330 0 -330 274z" />
<glyph unicode="d" horiz-adv-x="907" d="M133 291v571q0 139 84 215t215 76h219v307h103v-1460h-101v63q-89 -70 -228 -70q-1 1 -2 1q-140 0 -215 76.5t-75 220.5zM236 289q0 -203 194 -203q139 0 221 82v891h-194q-221 0 -221 -197v-573z" />
<glyph unicode="e" horiz-adv-x="894" d="M133 285v573q0 141 79 228.5t240.5 87.5t240.5 -87.5t79 -228.5v-342h-536v-231q0 -199 272 -199q111 0 227 35v-101q-101 -30 -219 -30h-8q-375 0 -375 295zM236 608h434v250q0 223 -217 223t-217 -223v-250z" />
<glyph unicode="f" horiz-adv-x="546" d="M82 1061v92h117v86q0 125 66.5 192.5t195.5 67.5q49 0 86 -6v-94q-33 8 -86 8q-160 0 -160 -168v-86h229v-92h-229v-1061h-102v1061h-117z" />
<glyph unicode="g" horiz-adv-x="909" d="M92 -145q125 -68 305 -68h82q256 0 256 154v22q0 72 -33.5 106.5t-136.5 34.5h-123q-115 0 -178 45.5t-63 129.5v32q0 51 28.5 85t73.5 46q-203 53 -203 279v160q0 137 82 215t232.5 78t236.5 -60q37 113 176 113h31v-105h-67q-61 0 -105 -39q70 -76 70 -202v-160 q0 -137 -82 -215t-246 -78q-133 0 -133 -125q0 -55 33.5 -80.5t113.5 -25.5h121q274 0 275 -234v-20q0 -248 -357 -248h-84q-195 0 -305 57v103zM203 721q0 -100 53 -150.5t172 -50.5t172 50.5t53 150.5v160q0 100 -53 150t-172 50t-172 -50t-53 -150v-160z" />
<glyph unicode="h" d="M154 0v1460h100v-360q127 57 250 57t196.5 -71.5t73.5 -200.5v-885h-102v885q0 178 -174 178q-115 0 -242 -62v-1001h-102z" />
<glyph unicode="i" horiz-adv-x="409" d="M137 1386.5q0 75.5 67.5 75.5t67.5 -75.5t-67.5 -75.5t-67.5 75.5zM154 0v1153h102v-1153h-102z" />
<glyph unicode="j" horiz-adv-x="409" d="M-53 -211q33 -4 55 -4q80 0 116 40t36 134v1194h102v-1194q0 -266 -254 -266q-18 0 -55 4v92zM137 1386.5q0 75.5 67.5 75.5t67.5 -75.5t-67.5 -75.5t-67.5 75.5z" />
<glyph unicode="k" horiz-adv-x="806" d="M154 0v1460h102v-1460h-102zM354 592l281 561h115l-279 -557l295 -596h-117z" />
<glyph unicode="l" horiz-adv-x="409" d="M154 0v1460h102v-1460h-102z" />
<glyph unicode="m" horiz-adv-x="1435" d="M154 0v1153h100v-53q143 57 242 57q143 0 219 -88q147 88 287.5 88t215 -71.5t74.5 -200.5v-885h-102v885q0 178 -176 178q-127 0 -254 -80q14 -41 14 -98v-885h-102v885q0 178 -176 178q-111 0 -240 -62v-1001h-102z" />
<glyph unicode="n" d="M154 0v1153h100v-53q143 57 257 57t188.5 -71.5t74.5 -200.5v-885h-102v885q0 178 -176 178q-111 0 -240 -62v-1001h-102z" />
<glyph unicode="o" horiz-adv-x="901" d="M133 293v567q0 141 78 227.5t239.5 86.5t239.5 -86.5t78 -227.5v-567q0 -141 -78 -227t-239.5 -86t-239.5 86t-78 227zM236 293q0 -221 215 -221t215 221v567q0 221 -215 221t-215 -221v-567z" />
<glyph unicode="p" horiz-adv-x="907" d="M154 -305v1458h100v-55q143 59 257 59t188.5 -71.5t74.5 -200.5v-578q0 -141 -82 -224t-217 -83h-219v-305h-102zM256 92h197q219 0 219 215v578q0 178 -176 178q-111 0 -240 -62v-909z" />
<glyph unicode="q" horiz-adv-x="907" d="M133 291v559q0 141 85 222t222 81h314v-1458h-101v368q-89 -70 -229 -70q-1 0 -2 1q-141 0 -215 76.5t-74 220.5zM236 289q0 -203 192 -203q141 0 223 82v891h-188q-109 0 -168 -52.5t-59 -156.5v-561z" />
<glyph unicode="r" horiz-adv-x="557" d="M154 0v1153h100v-90q33 23 49 36t35.5 24.5t32 15.5t32.5 10q36 10 89 10h55v-100h-74q-61 0 -92 -19.5t-41 -25.5t-39 -28.5t-45 -33.5v-952h-102z" />
<glyph unicode="s" horiz-adv-x="724" d="M61 817v74q0 137 77 204.5t253 67.5q113 0 221 -35v-98q-111 39 -233.5 39t-168.5 -41t-46 -137v-62q0 -78 28.5 -116.5t102.5 -69.5l178 -80q190 -86 191 -246v-55q0 -272 -353 -272q-131 0 -239 35v98q111 -39 244 -39t189 44t56 134v47q0 63 -27.5 98t-107.5 70 l-186 82q-178 76 -179 258z" />
<glyph unicode="t" horiz-adv-x="579" d="M10 1061v92h135l29 213h72v-213h280v-92h-280v-823q0 -82 39 -117t123 -35t141 20v-94q-61 -18 -167 -18t-172.5 62.5t-66.5 181.5v823h-133z" />
<glyph unicode="u" d="M143 291v862h103v-862q0 -207 194 -207q59 0 114.5 18.5t107.5 55.5v995h102v-1153h-100v55q-94 -61 -232.5 -61t-213.5 76.5t-75 220.5z" />
<glyph unicode="v" horiz-adv-x="761" d="M41 1153h106l234 -1087q38 180 233 1087h107l-258 -1153h-164z" />
<glyph unicode="w" horiz-adv-x="1210" d="M41 1153h104l193 -1071l203 1071h129l200 -1071l195 1071h104l-217 -1153h-161l-121 623l-66 397q-29 -219 -63 -397l-121 -623h-162z" />
<glyph unicode="x" horiz-adv-x="716" d="M20 0l285 575l-285 578h105l233 -471l234 471h104l-286 -578l286 -575h-104l-234 471l-233 -471h-105z" />
<glyph unicode="y" horiz-adv-x="761" d="M41 1153h106l138 -633l94 -454q51 253 235 1087h107l-328 -1458h-98l65 305h-61z" />
<glyph unicode="z" horiz-adv-x="632" d="M41 0v92l444 969h-432v92h539v-92l-455 -969h453v-92h-549z" />
<glyph unicode="{" horiz-adv-x="686" d="M123 616v86h4q78 0 119 41t41 111v473q0 113 72.5 175.5t207.5 62.5h17v-86h-15q-190 0 -190 -152v-432q0 -111 -37 -168t-135 -68q98 -10 135 -67t37 -168v-432q0 -152 190 -152h15v-86h-17q-135 0 -207.5 62.5t-72.5 175.5v473q0 70 -41 110.5t-119 40.5h-4z" />
<glyph unicode="|" horiz-adv-x="415" d="M164 -287v1893h88v-1893h-88z" />
<glyph unicode="}" horiz-adv-x="686" d="M102 -160h15q190 0 190 152v432q0 111 37 168t135 67q-98 10 -135 67.5t-37 168.5v432q0 152 -190 152h-15v86h17q135 0 207.5 -62.5t72.5 -175.5v-473q0 -70 41 -111t119 -41h4v-86h-4q-78 0 -119 -40.5t-41 -110.5v-473q0 -113 -72.5 -175.5t-207.5 -62.5h-17v86z" />
<glyph unicode="~" horiz-adv-x="768" d="M47 635q0 106 87 144t181 -11l152 -74q84 -45 136 -21.5t38 109.5h76q4 -20 4 -43q0 -106 -86 -144t-182 11l-152 74q-80 43 -134 20.5t-40 -108.5h-76q-4 20 -4 43z" />
<glyph unicode="&#xa1;" horiz-adv-x="462" d="M162 1087.5q0 75.5 67.5 75.5t67.5 -75.5t-67.5 -75.5t-67.5 75.5zM174 -211l12 1038h88l13 -1038h-113z" />
<glyph unicode="&#xa2;" horiz-adv-x="829" d="M154 264v623q0 254 278 274v176h92v-174q100 -6 166 -26v-95q-94 27 -217 27t-170 -45t-47 -137v-623q0 -92 47 -136t173 -44t218 31v-97q-84 -25 -168 -26v-156h-92v156q-281 16 -280 272z" />
<glyph unicode="&#xa3;" horiz-adv-x="907" d="M88 0v98h18q82 0 123 95q16 43 17 102v369h-125v86h125v319q0 297 325 297q123 0 256 -43v-102q-133 47 -260 47t-173 -51.5t-46 -147.5v-319h369v-86h-369v-363q0 -76 -24 -125q-33 -72 -72 -78h588v-98h-752z" />
<glyph unicode="&#xa4;" horiz-adv-x="942" d="M109 375l90 88q-25 61 -25 147v144q0 86 25 147l-90 88l71 72l78 -76q74 61 213 61.5t213 -61.5l78 76l72 -72l-91 -88q25 -61 25 -147v-144q0 -86 -25 -147l91 -88l-72 -72l-78 76q-74 -61 -213 -61.5t-213 61.5l-78 -76zM274 610q0 -106 41 -154t156 -48t156 48t41 154 v144q0 106 -41 154t-156 48t-156 -48t-41 -154v-144z" />
<glyph unicode="&#xa5;" horiz-adv-x="919" d="M82 438v82h321l-92 228h-229v81h197l-197 490h98l301 -768l297 768h99l-197 -490h197v-81h-230l-92 -228h322v-82h-351v-438h-92v438h-352z" />
<glyph unicode="&#xa6;" horiz-adv-x="415" d="M164 -287v768h88v-768h-88zM164 838v768h88v-768h-88z" />
<glyph unicode="&#xa7;" horiz-adv-x="724" d="M61 1059v33q0 137 77 204.5t227.5 67.5t246.5 -31v-98q-98 35 -227 35t-175 -44t-46 -140.5t26.5 -132t104.5 -68.5l178 -80q190 -86 191 -246v-33h-103v25q0 63 -27.5 98t-107.5 70l-186 82q-178 76 -179 258zM78 496v32h102v-20q0 -78 29 -117t102 -69l178 -80 q190 -86 191 -246v-29q0 -272 -352 -272q-143 0 -240 31v98q98 -35 238.5 -35t196 43t55.5 129t-27 123t-109 72l-186 82q-178 76 -178 258z" />
<glyph unicode="&#xa8;" horiz-adv-x="716" d="M162 1349.5q0 67.5 67.5 67.5t67.5 -67.5t-67.5 -67.5t-67.5 67.5zM418 1349.5q0 67.5 67.5 67.5t67.5 -67.5t-67.5 -67.5t-67.5 67.5z" />
<glyph unicode="&#xa9;" horiz-adv-x="1394" d="M102 658.5q0 152.5 27 265t90 206.5q129 188 481 189q406 0 525 -262q68 -150 67 -400q0 -481 -305 -608q-119 -49 -289 -49t-289.5 48t-185 139.5t-93.5 205t-28 266zM199 643q0 -123 19.5 -217t70.5 -176q102 -160 411 -160q299 0 406 164q51 80 70.5 175t19.5 231.5 t-17.5 229.5t-68.5 175q-98 164 -410 164q-244 0 -364 -105q-102 -90 -127 -280q-10 -78 -10 -201zM463 551v215q0 127 60.5 193.5t205.5 66.5q86 0 150 -14v-97q-61 23 -159.5 23t-129.5 -42t-31 -130v-215q0 -82 21 -113q37 -57 138 -57t163 22v-98q-78 -14 -152 -14 q-145 0 -205.5 66.5t-60.5 193.5z" />
<glyph unicode="&#xaa;" horiz-adv-x="696" d="M70 815v76q0 174 229 213l217 35v188q-4 61 -41 91t-144.5 30t-226.5 -43v82q113 39 244 39q250 0 250 -209v-725h-82v72q-29 -35 -87 -54.5t-120 -19.5q-127 0 -183 56t-56 169zM152 815q0 -82 34.5 -117.5t112.5 -35.5q160 0 217 83v316l-203 -31q-161 -26 -161 -139 v-76z" />
<glyph unicode="&#xab;" horiz-adv-x="856" d="M125 659l248 375h108l-250 -375l250 -374h-108zM461 659l248 375h108l-250 -375l250 -374h-108z" />
<glyph unicode="&#xac;" horiz-adv-x="890" d="M154 623v92h583v-289h-104v197h-479z" />
<glyph unicode="&#xad;" horiz-adv-x="421" d="M82 621v81h268v-81h-268z" />
<glyph unicode="&#xae;" horiz-adv-x="995" d="M131 1057q0 219 85 318.5t304 99.5t304 -98.5t85 -317.5t-84 -316.5t-305 -97.5t-305 96.5t-84 315.5zM213 1059q0 -201 57.5 -272.5t248 -71.5t249.5 71.5t59 271t-60 273.5t-248.5 74t-247 -72.5t-58.5 -273.5zM375 803v516h139q174 0 174 -156q0 -111 -72 -147 l95 -213h-86l-80 196q-10 -2 -33 -2h-59v-194h-78zM453 1063h53q61 0 86.5 20.5t25.5 79t-22.5 73.5t-75.5 15h-67v-188z" />
<glyph unicode="&#xaf;" horiz-adv-x="716" d="M143 1313v80h430v-80h-430z" />
<glyph unicode="&#xb0;" horiz-adv-x="720" d="M113 1319.5q0 275.5 255 275.5t255 -275.5t-255 -275.5t-255 275.5zM195 1317q0 -94 34.5 -143.5t137 -49.5t138.5 50.5t36 142.5t-36 143t-138.5 51t-137 -50t-34.5 -144z" />
<glyph unicode="&#xb1;" horiz-adv-x="862" d="M82 109v81h698v-81h-698zM82 621v81h303v308h92v-308h303v-81h-303v-310h-92v310h-303z" />
<glyph unicode="&#xb2;" horiz-adv-x="593" d="M55 592v151q0 100 37 153.5t144 123.5l129 84q53 35 69.5 75t16.5 103v35q0 68 -36 99.5t-137.5 31.5t-193.5 -21v80q93 19 199 19q250 0 249 -209v-35q0 -86 -27.5 -140.5t-103.5 -105.5l-125 -84q-96 -66 -117.5 -97.5t-21.5 -106.5v-78h402v-78h-484z" />
<glyph unicode="&#xb3;" horiz-adv-x="632" d="M70 606v80q109 -25 204 -24.5t133.5 32t38.5 99.5v98q0 66 -28.5 99.5t-120.5 35.5h-88v78h88q90 0 119.5 37t29.5 104v72q0 68 -37.5 99.5t-126.5 31.5t-188 -16v79q82 15 180 15q248 0 254 -199v-82q0 -141 -96 -180q96 -37 96 -174v-98q0 -209 -256 -209 q-113 0 -202 22z" />
<glyph unicode="&#xb4;" horiz-adv-x="716" d="M264 1245l76 215h113l-113 -215h-76z" />
<glyph unicode="&#xb5;" horiz-adv-x="927" d="M154 -309v1462h102v-1020q59 -45 195 -45q59 0 114.5 19.5t106.5 58.5v987h102v-1153h-100v55q-94 -59 -217 -59t-201 33v-338h-102z" />
<glyph unicode="&#xb6;" horiz-adv-x="794" d="M135 1058q0 140 82 224t244 84h178v-1364h-102v748h-76q-162 0 -244 84t-82 224z" />
<glyph unicode="&#xb7;" horiz-adv-x="401" d="M137 704.5q0 67.5 67.5 67.5t67.5 -67.5t-67.5 -67.5t-67.5 67.5z" />
<glyph unicode="&#xb8;" horiz-adv-x="716" d="M219 -285q37 -16 92 -16q115 0 115 82t-119 82h-28l30 149h64l-21 -94q66 -4 105 -40t39 -102.5t-50.5 -104.5t-120 -38t-106.5 15v67z" />
<glyph unicode="&#xb9;" horiz-adv-x="462" d="M53 1274v100l187 144h104v-926h-82v848z" />
<glyph unicode="&#xba;" horiz-adv-x="696" d="M98 793v524q0 209 250 209t250 -209v-524q0 -209 -250 -209t-250 209zM180 793q0 -68 36 -99.5t132 -31.5t132 31.5t36 99.5v534q-4 62 -41 91.5t-128 29.5t-129 -29.5t-38 -91.5v-534z" />
<glyph unicode="&#xbb;" horiz-adv-x="856" d="M39 285l250 374l-250 375h108l248 -375l-248 -374h-108zM375 285l250 374l-250 375h108l248 -375l-248 -374h-108z" />
<glyph unicode="&#xbc;" horiz-adv-x="1589" d="M82 1120v101l186 143h105v-926h-82v848zM328 0l645 1364h86l-645 -1364h-86zM893 213v76l344 637h125v-637h104v-76h-104v-213h-78v213h-391zM975 289h309v575z" />
<glyph unicode="&#xbd;" horiz-adv-x="1562" d="M82 1120v101l186 143h105v-926h-82v848zM328 0l645 1364h86l-645 -1364h-86zM956 0v152q0 98 37 152t144 124l129 84q53 35 69.5 75t16.5 103v35q0 68 -36 99.5t-137.5 31.5t-193.5 -20v79q93 19 199 19q250 0 250 -209v-35q0 -86 -28 -140t-103 -106l-125 -84 q-96 -66 -118 -97.5t-22 -106.5v-78h402v-78h-484z" />
<glyph unicode="&#xbe;" horiz-adv-x="1679" d="M82 455v80q109 -25 204 -25t134 31.5t39 99.5v98q0 66 -29 99.5t-121 35.5h-88v78h88q90 0 120 37t30 105v71q0 68 -38 99.5t-127 31.5t-188 -16v80q83 14 181 14q248 0 254 -198v-82q0 -141 -97 -181q96 -37 97 -174v-98q0 -209 -256 -209q-113 0 -203 23zM459 0 l645 1364h86l-645 -1364h-86zM983 213v76l344 637h125v-637h104v-76h-104v-213h-78v213h-391zM1065 289h309v575z" />
<glyph unicode="&#xbf;" horiz-adv-x="751" d="M76 43v209q0 303 311 311l8 264h92l7 -358h-111q-205 0 -205 -217v-209q0 -90 52.5 -133t184.5 -43t234 31v-103q-106 -26 -229 -26q-344 0 -344 274zM375 1087.5q0 75.5 67.5 75.5t67.5 -75.5t-67.5 -75.5t-67.5 75.5z" />
<glyph unicode="&#xc0;" horiz-adv-x="868" d="M41 0l319 1364h148l319 -1364h-106l-92 399h-389l-93 -399h-106zM260 492h348l-174 755zM270 1665h113l76 -215h-76z" />
<glyph unicode="&#xc1;" horiz-adv-x="868" d="M41 0l319 1364h148l319 -1364h-106l-92 399h-389l-93 -399h-106zM260 492h348l-174 755zM399 1450l76 215h113l-113 -215h-76z" />
<glyph unicode="&#xc2;" horiz-adv-x="868" d="M41 0l319 1364h148l319 -1364h-106l-92 399h-389l-93 -399h-106zM260 492h348l-174 755zM291 1450l98 215h94l99 -215h-74l-72 139l-71 -139h-74z" />
<glyph unicode="&#xc3;" horiz-adv-x="868" d="M41 0l319 1364h148l319 -1364h-106l-92 399h-389l-93 -399h-106zM207 1473v32q0 59 31.5 97t89 38t130 -42t97.5 -42q45 0 45 62v27h88v-33q0 -63 -31.5 -99t-86 -36t-125 42t-103.5 42q-47 -1 -47 -62v-26h-88zM260 492h348l-174 755z" />
<glyph unicode="&#xc4;" horiz-adv-x="868" d="M41 0l319 1364h148l319 -1364h-106l-92 399h-389l-93 -399h-106zM238 1554.5q0 67.5 67.5 67.5t67.5 -67.5t-67.5 -67.5t-67.5 67.5zM260 492h348l-174 755zM494 1554.5q0 67.5 67.5 67.5t67.5 -67.5t-67.5 -67.5t-67.5 67.5z" />
<glyph unicode="&#xc5;" horiz-adv-x="868" d="M41 0l319 1364h148l319 -1364h-106l-92 399h-389l-93 -399h-106zM260 492h348l-174 755zM287 1558.5q0 61.5 40 102.5t108.5 41t107.5 -41t39 -103.5t-39 -103.5t-107.5 -41t-108.5 42t-40 103.5zM358 1558.5q0 -34.5 20.5 -56t55.5 -21.5t55.5 21.5t20.5 56t-20.5 55 t-55.5 20.5t-55.5 -20.5t-20.5 -55z" />
<glyph unicode="&#xc6;" horiz-adv-x="1314" d="M20 0l642 1364h628v-92h-463v-539h404v-92h-404v-549h463v-92h-565v399h-408l-184 -399h-113zM360 492h365v788z" />
<glyph unicode="&#xc7;" horiz-adv-x="796" d="M133 266v832q0 276 346 276q117 0 232 -33v-96q-117 35 -242 35t-179 -46t-54 -136v-832q0 -90 54 -136t181 -46t244 35v-96q-102 -33 -234 -33l-16 -72q65 -4 104 -40t39 -102.5t-50 -104.5t-119.5 -38t-106.5 15v67q37 -16 92 -16q115 0 115 82t-119 82h-29l27 129 q-285 25 -285 274z" />
<glyph unicode="&#xc8;" horiz-adv-x="800" d="M154 0v1364h565v-92h-463v-539h403v-92h-403v-549h463v-92h-565zM287 1665h112l76 -215h-76z" />
<glyph unicode="&#xc9;" horiz-adv-x="800" d="M154 0v1364h565v-92h-463v-539h403v-92h-403v-549h463v-92h-565zM403 1450l76 215h113l-113 -215h-76z" />
<glyph unicode="&#xca;" horiz-adv-x="800" d="M154 0v1364h565v-92h-463v-539h403v-92h-403v-549h463v-92h-565zM281 1450l98 215h94l98 -215h-73l-72 139l-72 -139h-73z" />
<glyph unicode="&#xcb;" horiz-adv-x="800" d="M154 0v1364h565v-92h-463v-539h403v-92h-403v-549h463v-92h-565zM246 1554.5q0 67.5 67.5 67.5t67.5 -67.5t-67.5 -67.5t-67.5 67.5zM502 1554.5q0 67.5 67.5 67.5t67.5 -67.5t-67.5 -67.5t-67.5 67.5z" />
<glyph unicode="&#xcc;" horiz-adv-x="800" d="M154 0v1364h565v-92h-463v-539h403v-92h-403v-549h463v-92h-565zM291 1665h112l76 -215h-76z" />
<glyph unicode="&#xcd;" horiz-adv-x="800" d="M154 0v1364h565v-92h-463v-539h403v-92h-403v-549h463v-92h-565zM403 1450l76 215h113l-113 -215h-76z" />
<glyph unicode="&#xce;" horiz-adv-x="409" d="M72 1450l98 215h94l98 -215h-73l-72 139l-72 -139h-73zM154 0v1364h102v-1364h-102z" />
<glyph unicode="&#xcf;" horiz-adv-x="409" d="M6 1554.5q0 67.5 67.5 67.5t67.5 -67.5t-67.5 -67.5t-67.5 67.5zM154 0v1364h102v-1364h-102zM262 1554.5q0 67.5 67.5 67.5t67.5 -67.5t-67.5 -67.5t-67.5 67.5z" />
<glyph unicode="&#xd0;" horiz-adv-x="937" d="M-2 623v92h156v649h325q162 0 244 -84t82 -223v-750q0 -139 -82 -223t-244 -84h-325v623h-156zM256 92h223q223 0 223 215v750q0 215 -223 215h-223v-557h250v-92h-250v-531z" />
<glyph unicode="&#xd1;" horiz-adv-x="1005" d="M154 0v1364h133q442 -1126 467 -1192l-4 414v778h102v-1364h-135q-391 991 -467 1188l4 -414v-774h-100zM281 1473v32q0 59 31.5 97t89 38t130 -42t97.5 -42q45 0 45 62v27h88v-33q0 -63 -32 -99t-86 -36t-124.5 42t-103.5 42q-47 0 -47 -62v-26h-88z" />
<glyph unicode="&#xd2;" d="M133 293v778q0 139 82 226t244 87t243.5 -87t81.5 -226v-778q0 -139 -81.5 -226t-243.5 -87t-244 87t-82 226zM236 293q0 -221 223 -221t223 221v778q0 221 -223 221t-223 -221v-778zM293 1665h113l75 -215h-75z" />
<glyph unicode="&#xd3;" d="M133 293v778q0 139 82 226t244 87t243.5 -87t81.5 -226v-778q0 -139 -81.5 -226t-243.5 -87t-244 87t-82 226zM236 293q0 -221 223 -221t223 221v778q0 221 -223 221t-223 -221v-778zM418 1450l76 215h112l-112 -215h-76z" />
<glyph unicode="&#xd4;" d="M133 293v778q0 139 82 226t244 87t243.5 -87t81.5 -226v-778q0 -139 -81.5 -226t-243.5 -87t-244 87t-82 226zM236 293q0 -221 223 -221t223 221v778q0 221 -223 221t-223 -221v-778zM311 1450l99 215h94l98 -215h-74l-71 139l-72 -139h-74z" />
<glyph unicode="&#xd5;" d="M133 293v778q0 139 82 226t244 87t243.5 -87t81.5 -226v-778q0 -139 -81.5 -226t-243.5 -87t-244 87t-82 226zM221 1473v32q0 59 32 97t89 38t130 -42t97 -42q45 0 45 62v27h88v-33q0 -63 -31.5 -99t-86 -36t-125 42t-103.5 42q-47 0 -47 -62v-26h-88zM236 293 q0 -221 223 -221t223 221v778q0 221 -223 221t-223 -221v-778z" />
<glyph unicode="&#xd6;" d="M133 293v778q0 139 82 226t244 87t243.5 -87t81.5 -226v-778q0 -139 -81.5 -226t-243.5 -87t-244 87t-82 226zM236 293q0 -221 223 -221t223 221v778q0 221 -223 221t-223 -221v-778zM262 1554.5q0 67.5 67.5 67.5t67.5 -67.5t-67.5 -67.5t-67.5 67.5zM518 1554.5 q0 67.5 67.5 67.5t67.5 -67.5t-67.5 -67.5t-67.5 67.5z" />
<glyph unicode="&#xd7;" horiz-adv-x="702" d="M55 422l240 240l-240 237l58 57l239 -237l238 237l57 -57l-237 -237l237 -240l-57 -57l-238 239l-239 -239z" />
<glyph unicode="&#xd8;" d="M133 0l47 113q-47 74 -47 180v778q0 139 82 226t229.5 87t231.5 -63l18 43h90l-47 -113q47 -74 47 -180v-778q0 -139 -81.5 -226t-229 -87t-231.5 63l-19 -43h-90zM236 293q0 -27 2 -39l399 971q-55 68 -178 67q-223 0 -223 -221v-778zM281 139q55 -68 178 -67 q223 0 223 221v778q0 27 -2 39z" />
<glyph unicode="&#xd9;" horiz-adv-x="937" d="M143 293v1071h103v-1071q0 -221 223 -221t223 221v1071h103v-1071q0 -139 -82 -226t-244 -87t-244 87t-82 226zM317 1665h113l76 -215h-76z" />
<glyph unicode="&#xda;" horiz-adv-x="937" d="M143 293v1071h103v-1071q0 -221 223 -221t223 221v1071h103v-1071q0 -139 -82 -226t-244 -87t-244 87t-82 226zM432 1450l76 215h113l-113 -215h-76z" />
<glyph unicode="&#xdb;" horiz-adv-x="937" d="M143 293v1071h103v-1071q0 -221 223 -221t223 221v1071h103v-1071q0 -139 -82 -226t-244 -87t-244 87t-82 226zM322 1450l98 215h94l98 -215h-73l-72 139l-72 -139h-73z" />
<glyph unicode="&#xdc;" horiz-adv-x="937" d="M143 293v1071h103v-1071q0 -221 223 -221t223 221v1071h103v-1071q0 -139 -82 -226t-244 -87t-244 87t-82 226zM272 1554.5q0 67.5 68 67.5t68 -67.5t-68 -67.5t-68 67.5zM528 1554.5q0 67.5 68 67.5t68 -67.5t-68 -67.5t-68 67.5z" />
<glyph unicode="&#xdd;" horiz-adv-x="798" d="M10 1364h107q190 -504 226 -604.5t58 -157.5q20 57 62 172q92 252 219 590h106l-337 -893v-471h-103v471zM356 1450l76 215h113l-113 -215h-76z" />
<glyph unicode="&#xde;" horiz-adv-x="866" d="M174 0v1364h102v-258h199q162 0 244 -84t82 -223v-234q0 -139 -82 -223t-244 -84h-199v-258h-102zM276 354h199q223 0 223 211v234q0 215 -223 215h-199v-660z" />
<glyph unicode="&#xdf;" horiz-adv-x="1081" d="M154 0v1141q0 319 364 319q154 0 244 -77.5t90 -215.5q0 -72 -30.5 -133t-67.5 -96q-100 -92 -101 -160v-20q0 -51 32 -90t143.5 -94.5t159.5 -110.5t48 -141v-52q0 -131 -89 -205.5t-241.5 -74.5t-261.5 35v102q111 -39 240 -39q250 0 250 182v43q0 63 -26.5 99.5 t-140.5 92.5t-164 108.5t-50 140.5v22q0 59 30.5 110.5t67.5 82t68 83t31 115.5q0 199 -232 199q-137 0 -199.5 -55.5t-62.5 -169.5v-1141h-102z" />
<glyph unicode="&#xe0;" horiz-adv-x="864" d="M72 266v66q0 203 245 272l304 86v195q0 92 -50.5 136t-190.5 44t-255 -41v102q115 37 260 37q336 0 336 -278v-885h-100v82q-39 -31 -68 -47q-72 -43 -195 -43q-287 0 -286 274zM172 264q0 -94 44 -138t149 -44q150 0 256 94v418l-271 -76q-100 -31 -139 -73.5 t-39 -116.5v-64zM270 1460h113l76 -215h-76z" />
<glyph unicode="&#xe1;" horiz-adv-x="864" d="M72 266v66q0 203 245 272l304 86v195q0 92 -50.5 136t-190.5 44t-255 -41v102q115 37 260 37q336 0 336 -278v-885h-100v82q-39 -31 -68 -47q-72 -43 -195 -43q-287 0 -286 274zM172 264q0 -94 44 -138t149 -44q150 0 256 94v418l-271 -76q-100 -31 -139 -73.5 t-39 -116.5v-64zM383 1245l76 215h112l-112 -215h-76z" />
<glyph unicode="&#xe2;" horiz-adv-x="864" d="M72 266v66q0 203 245 272l304 86v195q0 92 -50.5 136t-190.5 44t-255 -41v102q115 37 260 37q336 0 336 -278v-885h-100v82q-39 -31 -68 -47q-72 -43 -195 -43q-287 0 -286 274zM172 264q0 -94 44 -138t149 -44q150 0 256 94v418l-271 -76q-100 -31 -139 -73.5 t-39 -116.5v-64zM295 1245l98 215h94l99 -215h-74l-72 139l-71 -139h-74z" />
<glyph unicode="&#xe3;" horiz-adv-x="864" d="M72 266v66q0 203 245 272l304 86v195q0 92 -50.5 136t-190.5 44t-255 -41v102q115 37 260 37q336 0 336 -278v-885h-100v82q-39 -31 -68 -47q-72 -43 -195 -43q-287 0 -286 274zM172 264q0 -94 44 -138t149 -44q150 0 256 94v418l-271 -76q-100 -31 -139 -73.5 t-39 -116.5v-64zM193 1268v32q0 59 31.5 97.5t89 38.5t130 -42t97.5 -42q45 0 45 61v27h88v-33q0 -63 -32 -99t-86 -36t-125 42t-103 42q-47 0 -47 -62v-26h-88z" />
<glyph unicode="&#xe4;" horiz-adv-x="864" d="M72 266v66q0 203 245 272l304 86v195q0 92 -50.5 136t-190.5 44t-255 -41v102q115 37 260 37q336 0 336 -278v-885h-100v82q-39 -31 -68 -47q-72 -43 -195 -43q-287 0 -286 274zM172 264q0 -94 44 -138t149 -44q150 0 256 94v418l-271 -76q-100 -31 -139 -73.5 t-39 -116.5v-64zM233 1349.5q0 67.5 68 67.5t68 -67.5t-68 -67.5t-68 67.5zM489 1349.5q0 67.5 68 67.5t68 -67.5t-68 -67.5t-68 67.5z" />
<glyph unicode="&#xe5;" horiz-adv-x="864" d="M72 266v66q0 203 245 272l304 86v195q0 92 -50.5 136t-190.5 44t-255 -41v102q115 37 260 37q336 0 336 -278v-885h-100v82q-39 -31 -68 -47q-72 -43 -195 -43q-287 0 -286 274zM172 264q0 -94 44 -138t149 -44q150 0 256 94v418l-271 -76q-100 -31 -139 -73.5 t-39 -116.5v-64zM281 1353.5q0 61.5 39.5 102.5t108.5 41t107.5 -41t38.5 -103.5t-38.5 -103.5t-107.5 -41t-108.5 42t-39.5 103.5zM352 1354q0 -35 20.5 -56.5t55.5 -21.5t55.5 21.5t20.5 56.5t-20.5 55.5t-55.5 20.5t-55.5 -20.5t-20.5 -55.5z" />
<glyph unicode="&#xe6;" horiz-adv-x="1327" d="M72 266v66q0 203 245 272l304 86v195q0 92 -50.5 136t-190.5 44t-255 -41v102q115 37 260 37q213 1 293 -112q90 123 260 123t249 -87.5t79 -228.5v-342h-543v-231q0 -199 278 -199q111 0 228 35v-101q-104 -31 -228 -30q-229 0 -319 108q-121 -106 -324 -106 q-287 0 -286 274zM172 264q0 -94 44 -138t149 -44q162 0 256 84v428l-271 -76q-100 -31 -139 -73.5t-39 -116.5v-64zM723 608h440v250q0 223 -217 223q-223 0 -223 -223v-250z" />
<glyph unicode="&#xe7;" horiz-adv-x="755" d="M133 264v623q0 276 330 276q119 0 207 -26v-95q-92 27 -216 27t-171 -45t-47 -137v-623q0 -92 47 -136t173 -44t218 31v-97q-102 -28 -211 -28h-8l-17 -72q66 -4 105 -40t39 -102.5t-50.5 -104.5t-120 -38t-106.5 15v67q37 -16 92 -16q115 0 115 82t-119 82h-28l26 131 q-258 25 -258 270z" />
<glyph unicode="&#xe8;" horiz-adv-x="894" d="M133 285v573q0 141 79 228.5t240.5 87.5t240.5 -87.5t79 -228.5v-342h-536v-231q0 -199 272 -199q111 0 227 35v-101q-104 -31 -227 -30q-375 0 -375 295zM236 608h434v250q0 223 -217 223t-217 -223v-250zM319 1460h113l76 -215h-76z" />
<glyph unicode="&#xe9;" horiz-adv-x="894" d="M133 285v573q0 141 79 228.5t240.5 87.5t240.5 -87.5t79 -228.5v-342h-536v-231q0 -199 272 -199q111 0 227 35v-101q-104 -31 -227 -30q-375 0 -375 295zM236 608h434v250q0 223 -217 223t-217 -223v-250zM430 1245l76 215h112l-112 -215h-76z" />
<glyph unicode="&#xea;" horiz-adv-x="894" d="M133 285v573q0 141 79 228.5t240.5 87.5t240.5 -87.5t79 -228.5v-342h-536v-231q0 -199 272 -199q111 0 227 35v-101q-104 -31 -227 -30q-375 0 -375 295zM236 608h434v250q0 223 -217 223t-217 -223v-250zM324 1245l98 215h94l98 -215h-73l-72 139l-72 -139h-73z" />
<glyph unicode="&#xeb;" horiz-adv-x="894" d="M133 285v573q0 141 79 228.5t240.5 87.5t240.5 -87.5t79 -228.5v-342h-536v-231q0 -199 272 -199q111 0 227 35v-101q-104 -31 -227 -30q-375 0 -375 295zM236 608h434v250q0 223 -217 223t-217 -223v-250zM264 1349.5q0 67.5 67.5 67.5t67.5 -67.5t-67.5 -67.5 t-67.5 67.5zM520 1349.5q0 67.5 67.5 67.5t67.5 -67.5t-67.5 -67.5t-67.5 67.5z" />
<glyph unicode="&#xec;" horiz-adv-x="409" d="M55 1460h113l76 -215h-76zM154 0v1153h102v-1153h-102z" />
<glyph unicode="&#xed;" horiz-adv-x="409" d="M154 0v1153h102v-1153h-102zM168 1245l76 215h112l-112 -215h-76z" />
<glyph unicode="&#xee;" horiz-adv-x="409" d="M61 1245l99 215h94l98 -215h-73l-72 139l-72 -139h-74zM154 0v1153h102v-1153h-102z" />
<glyph unicode="&#xef;" horiz-adv-x="409" d="M10 1349.5q0 67.5 67.5 67.5t67.5 -67.5t-67.5 -67.5t-67.5 67.5zM154 0v1153h102v-1153h-102zM266 1349.5q0 67.5 67.5 67.5t67.5 -67.5t-67.5 -67.5t-67.5 67.5z" />
<glyph unicode="&#xf0;" horiz-adv-x="927" d="M143 293v291q0 141 78 227t240 86q117 0 188 -57q-35 145 -125 303l-223 -119v92l178 94q-61 92 -129 154h142q39 -39 81 -104l207 110v-90l-164 -88q162 -282 162 -565v-334q0 -141 -77.5 -227t-239.5 -86t-240 86t-78 227zM246 293q0 -221 215 -221t215 221v430 q-78 82 -215 82q-215 0 -215 -221v-291z" />
<glyph unicode="&#xf1;" d="M154 0v1153h100v-53q143 57 257 57t188.5 -71.5t74.5 -200.5v-885h-102v885q0 178 -176 178q-111 0 -240 -62v-1001h-102zM229 1268v32q0 59 32 97.5t89.5 38.5t130 -42t97.5 -42q45 0 45 61v27h88v-33q0 -63 -32 -99t-86 -36t-125 42t-103 42q-47 0 -48 -62v-26h-88z " />
<glyph unicode="&#xf2;" horiz-adv-x="901" d="M133 293v567q0 141 78 227.5t239.5 86.5t239.5 -86.5t78 -227.5v-567q0 -141 -78 -227t-239.5 -86t-239.5 86t-78 227zM236 293q0 -221 215 -221t215 221v567q0 221 -215 221t-215 -221v-567zM305 1460h113l76 -215h-76z" />
<glyph unicode="&#xf3;" horiz-adv-x="901" d="M133 293v567q0 141 78 227.5t239.5 86.5t239.5 -86.5t78 -227.5v-567q0 -141 -78 -227t-239.5 -86t-239.5 86t-78 227zM236 293q0 -221 215 -221t215 221v567q0 221 -215 221t-215 -221v-567zM422 1245l76 215h112l-112 -215h-76z" />
<glyph unicode="&#xf4;" horiz-adv-x="901" d="M133 293v567q0 141 78 227.5t239.5 86.5t239.5 -86.5t78 -227.5v-567q0 -141 -78 -227t-239.5 -86t-239.5 86t-78 227zM236 293q0 -221 215 -221t215 221v567q0 221 -215 221t-215 -221v-567zM313 1245l99 215h94l98 -215h-74l-71 139l-72 -139h-74z" />
<glyph unicode="&#xf5;" horiz-adv-x="901" d="M133 293v567q0 141 78 227.5t239.5 86.5t239.5 -86.5t78 -227.5v-567q0 -141 -78 -227t-239.5 -86t-239.5 86t-78 227zM221 1268v32q0 59 32 97.5t89 38.5t130 -42t97 -42q45 0 45 61v27h88v-33q0 -63 -31.5 -99t-86 -36t-125 42t-103.5 42q-47 0 -47 -62v-26h-88z M236 293q0 -221 215 -221t215 221v567q0 221 -215 221t-215 -221v-567z" />
<glyph unicode="&#xf6;" horiz-adv-x="901" d="M133 293v567q0 141 78 227.5t239.5 86.5t239.5 -86.5t78 -227.5v-567q0 -141 -78 -227t-239.5 -86t-239.5 86t-78 227zM236 293q0 -221 215 -221t215 221v567q0 221 -215 221t-215 -221v-567zM270 1349.5q0 67.5 68 67.5t68 -67.5t-68 -67.5t-68 67.5zM526 1349.5 q0 67.5 68 67.5t68 -67.5t-68 -67.5t-68 67.5z" />
<glyph unicode="&#xf7;" horiz-adv-x="862" d="M82 616v82h698v-82h-698zM371 303.5q0 67.5 67.5 67.5t67.5 -67.5t-67.5 -67.5t-67.5 67.5zM371 1005.5q0 67.5 67.5 67.5t67.5 -67.5t-67.5 -67.5t-67.5 67.5z" />
<glyph unicode="&#xf8;" horiz-adv-x="901" d="M133 293v567q0 141 78 227.5t223.5 86.5t224.5 -60l19 39h90l-47 -104q47 -76 47 -189v-567q0 -141 -78 -227t-239 -86q-117 0 -195 49l-12 -29h-90l39 88q-59 78 -60 205zM236 293q0 -45 10 -90l372 819q-55 59 -167 59q-215 0 -215 -221v-567zM297 119q53 -47 154 -47 q215 0 215 221v567q0 23 -4 60z" />
<glyph unicode="&#xf9;" d="M143 291v862h103v-862q0 -207 194 -207q59 0 114.5 18.5t107.5 55.5v995h102v-1153h-100v55q-94 -61 -232.5 -61t-213.5 76.5t-75 220.5zM301 1460h113l75 -215h-75z" />
<glyph unicode="&#xfa;" d="M143 291v862h103v-862q0 -207 194 -207q59 0 114.5 18.5t107.5 55.5v995h102v-1153h-100v55q-94 -61 -232.5 -61t-213.5 76.5t-75 220.5zM414 1245l75 215h113l-113 -215h-75z" />
<glyph unicode="&#xfb;" d="M143 291v862h103v-862q0 -207 194 -207q59 0 114.5 18.5t107.5 55.5v995h102v-1153h-100v55q-94 -61 -232.5 -61t-213.5 76.5t-75 220.5zM311 1245l99 215h94l98 -215h-74l-71 139l-72 -139h-74z" />
<glyph unicode="&#xfc;" d="M143 291v862h103v-862q0 -207 194 -207q59 0 114.5 18.5t107.5 55.5v995h102v-1153h-100v55q-94 -61 -232.5 -61t-213.5 76.5t-75 220.5zM264 1349.5q0 67.5 67.5 67.5t67.5 -67.5t-67.5 -67.5t-67.5 67.5zM520 1349.5q0 67.5 67.5 67.5t67.5 -67.5t-67.5 -67.5 t-67.5 67.5z" />
<glyph unicode="&#xfd;" horiz-adv-x="761" d="M41 1153h106l138 -633l94 -454q51 253 235 1087h107l-328 -1458h-98l65 305h-61zM342 1245l76 215h112l-112 -215h-76z" />
<glyph unicode="&#xfe;" horiz-adv-x="927" d="M154 -367v1827h100v-360q143 57 257 57t188.5 -71.5t74.5 -200.5v-578q0 -141 -82 -224t-217 -83h-219v-367h-102zM256 92h197q219 0 219 215v578q0 178 -176 178q-111 0 -240 -62v-909z" />
<glyph unicode="&#xff;" horiz-adv-x="761" d="M41 1153h106l138 -633l94 -454q51 253 235 1087h107l-328 -1458h-98l65 305h-61zM180 1349.5q0 67.5 67.5 67.5t67.5 -67.5t-67.5 -67.5t-67.5 67.5zM436 1349.5q0 67.5 67.5 67.5t67.5 -67.5t-67.5 -67.5t-67.5 67.5z" />
<glyph unicode="&#x152;" horiz-adv-x="1349" d="M174 307v750q0 139 82 223t244 84h788v-92h-463v-539h404v-92h-404v-549h463v-92h-788q-162 0 -244 84t-82 223zM276 307q1 -215 224 -215h223v1180h-223q-223 0 -224 -215v-750z" />
<glyph unicode="&#x153;" horiz-adv-x="1454" d="M154 293v567q0 141 77.5 227.5t252.5 86.5t253 -121q84 121 257 121t252 -87.5t79 -228.5v-342h-537v-231q0 -199 273 -199q111 0 227 35v-101q-104 -31 -227 -30q-231 0 -322 112q-80 -123 -255 -122.5t-252.5 86.5t-77.5 227zM256 293q0 -221 215 -221t215 221v567 q0 221 -215 221t-215 -221v-567zM788 608h435v250q0 223 -217.5 223t-217.5 -223v-250z" />
<glyph unicode="&#x178;" horiz-adv-x="798" d="M10 1364h107q190 -504 226 -604.5t58 -157.5q20 57 62 172q92 252 219 590h106l-337 -893v-471h-103v471zM190 1554.5q0 67.5 68 67.5t68 -67.5t-68 -67.5t-68 67.5zM446 1554.5q0 67.5 68 67.5t68 -67.5t-68 -67.5t-68 67.5z" />
<glyph unicode="&#x2c6;" horiz-adv-x="716" d="M213 1245l98 215h95l98 -215h-74l-72 139l-71 -139h-74z" />
<glyph unicode="&#x2dc;" horiz-adv-x="716" d="M117 1268v32q0 59 31.5 97.5t89 38.5t130 -42t97.5 -42q45 0 45 61v27h88v-33q0 -63 -31.5 -99t-86 -36t-125 42t-103.5 42q-47 0 -47 -62v-26h-88z" />
<glyph unicode="&#x2000;" horiz-adv-x="851" />
<glyph unicode="&#x2001;" horiz-adv-x="1702" />
<glyph unicode="&#x2002;" horiz-adv-x="851" />
<glyph unicode="&#x2003;" horiz-adv-x="1702" />
<glyph unicode="&#x2004;" horiz-adv-x="567" />
<glyph unicode="&#x2005;" horiz-adv-x="425" />
<glyph unicode="&#x2006;" horiz-adv-x="283" />
<glyph unicode="&#x2007;" horiz-adv-x="283" />
<glyph unicode="&#x2008;" horiz-adv-x="212" />
<glyph unicode="&#x2009;" horiz-adv-x="340" />
<glyph unicode="&#x200a;" horiz-adv-x="94" />
<glyph unicode="&#x2010;" horiz-adv-x="421" d="M82 621v81h268v-81h-268z" />
<glyph unicode="&#x2011;" horiz-adv-x="421" d="M82 621v81h268v-81h-268z" />
<glyph unicode="&#x2012;" horiz-adv-x="421" d="M82 621v81h268v-81h-268z" />
<glyph unicode="&#x2013;" horiz-adv-x="706" d="M82 618v82h534v-82h-534z" />
<glyph unicode="&#x2014;" horiz-adv-x="1175" d="M82 621v81h985v-81h-985z" />
<glyph unicode="&#x2018;" horiz-adv-x="301" d="M61 1120q0 82 113 330h66l-82 -385h-41q-55 0 -56 55z" />
<glyph unicode="&#x2019;" horiz-adv-x="301" d="M61 1065l82 385h41q55 0 56 -55q0 -82 -113 -330h-66z" />
<glyph unicode="&#x201a;" horiz-adv-x="301" d="M61 -244l82 385h41q55 0 56 -55q0 -82 -113 -330h-66z" />
<glyph unicode="&#x201c;" horiz-adv-x="501" d="M61 1120q0 82 113 330h62l-82 -385h-37q-55 0 -56 55zM266 1120q0 82 113 330h61l-82 -385h-36q-55 0 -56 55z" />
<glyph unicode="&#x201d;" horiz-adv-x="501" d="M61 1065l82 385h37q55 0 56 -55q0 -82 -113 -330h-62zM266 1065l82 385h37q55 0 55 -55q0 -82 -112 -330h-62z" />
<glyph unicode="&#x201e;" horiz-adv-x="501" d="M61 -244l82 385h37q55 0 56 -55q0 -82 -113 -330h-62zM266 -244l82 385h37q55 0 55 -55q0 -82 -112 -330h-62z" />
<glyph unicode="&#x2022;" horiz-adv-x="561" d="M147 659.5q0 133.5 133.5 133.5t133.5 -133.5t-133.5 -133.5t-133.5 133.5z" />
<glyph unicode="&#x2026;" horiz-adv-x="1060" d="M135 67.5q0 67.5 67.5 67.5t67.5 -67.5t-67.5 -67.5t-67.5 67.5zM463 67.5q0 67.5 67.5 67.5t67.5 -67.5t-67.5 -67.5t-67.5 67.5zM791 67.5q0 67.5 67.5 67.5t67.5 -67.5t-67.5 -67.5t-67.5 67.5z" />
<glyph unicode="&#x202f;" horiz-adv-x="340" />
<glyph unicode="&#x2039;" horiz-adv-x="653" d="M125 659l248 375h108l-250 -375l250 -374h-108z" />
<glyph unicode="&#x203a;" horiz-adv-x="630" d="M125 285l250 374l-250 375h108l248 -375l-248 -374h-108z" />
<glyph unicode="&#x205f;" horiz-adv-x="425" />
<glyph unicode="&#x20ac;" horiz-adv-x="796" d="M27 518v82h106v188h-106v82h106v228q0 276 346 276q117 0 232 -33v-96q-117 35 -242 35t-179 -46t-54 -136v-228h346v-82h-346v-188h346v-82h-346v-252q0 -90 54 -136t181 -46t244 35v-96q-102 -33 -236 -33q-346 0 -346 276v252h-106z" />
<glyph unicode="&#x2122;" horiz-adv-x="1081" d="M143 1358v63h332v-63h-131v-393h-70v393h-131zM520 965v456h96l82 -268l21 -94l20 94l82 268h97v-456h-70v219l18 196l-121 -415h-53l-121 415l19 -196v-219h-70z" />
<glyph unicode="&#x25fc;" horiz-adv-x="1157" d="M0 0v1157h1157v-1157h-1157z" />
</font>
</defs>
</svg>
